+ pyknicwear.com »  :::: Hollywood Zone » Hollywood Movies (Original Rips)
|- Fifty Shades Darker (2017) 720p UNRATED 600MB WEB-DL x264 [-Sharmi-]


100% Bill Offer

Fifty Shades Darker (2017) 720p UNRATED 600MB WEB-DL x264 [-Sharmi-]

0 Members and 1 Guest are viewing this topic.

April 26, 2017, 01:28:47 PM
  • Team SSX
  • Hot Member
  • ***
  • Topic Author
  • Thank You: 100
  • Reputation: 15
  • Activity:
    0%
  • Country: in
  • Posts: 572
  • Topics: 562
  • Join Date: Mar 2017
  • ShareSpark Member

Fifty Shades Darker (2017) 720p UNRATED 600MB WEB-DL x264 [-Sharmi-]



Code: [Select]
IMDB:- http://www.imdb.com/title/tt4465564/

Format                      : MPEG-4
Format profile              : Base Media / Version 2
Codec ID                    : mp42 (isom/iso2/avc1/mp41)
File size                   : 617 MiB
Duration                    : 2 h 11 min
Overall bit rate mode       : Variable
Overall bit rate            : 656 kb/s
Movie name                  : Fifty Shades Darker - Sharmi

Video
ID                          : 1
Format                      : AVC
Format/Info                 : Advanced Video Codec
Format profile              : [email protected]
Format settings, CABAC      : Yes
Format settings, ReFrames   : 4 frames
Codec ID                    : avc1
Codec ID/Info               : Advanced Video Coding
Duration                    : 2 h 11 min
Bit rate                    : 523 kb/s
Width                       : 1 280 pixels
Height                      : 532 pixels
Display aspect ratio        : 2.40:1
Frame rate mode             : Variable
Frame rate                  : 23.976 FPS
Minimum frame rate          : 15.873 FPS
Maximum frame rate          : 47.619 FPS
Stream size                 : 489 MiB (79%)
Writing library             : x264 core 142 r2491 24e4fed
Encoded date                : UTC 2017-04-26 06:23:34
Tagged date                 : UTC 2017-04-26 06:23:34

Audio
ID                          : 2
Format                      : AAC
Format/Info                 : Advanced Audio Codec
Format profile              : LC
Codec ID                    : 40
Duration                    : 2 h 11 min
Bit rate mode               : Variable
Bit rate                    : 130 kb/s
Channel(s)                  : 2 channels
Channel positions           : Front: L R
Sampling rate               : 48.0 kHz
Frame rate                  : 46.875 FPS (1024 spf)
Compression mode            : Lossy
Stream size                 : 122 MiB (20%)
Language                    : English
Default                     : Yes
Alternate group             : 1

Screenshots:-Click to Enlarge:-



Watch Online/Download :-
Code: [Select]
http://streamin.to/p1t4whqbtj8f
http://thevideo.me/6huheguhhj2j
http://estream.to/e6zcxso1yvaq.html
http://www.flashx.tv/9r68mij7w997.html
http://vidup.me/n8kjmqmwlz0x

Single Fast Direct Download :-
Code: [Select]
http://clicknupload.link/silsq73zxtn3
http://filescdn.com/56i0k1t2kybt
http://rg.to/file/df9843c52fa30927f915fe2e5b79ec4d/Fifty_Shades_Darker_(2017).mp4.html
[/b]

Share this topic on FacebookShare this topic on GoogleShare this topic on MySpaceShare this topic on TwitterShare this topic on Yahoo



Thanks given by:


April 27, 2017, 03:38:48 PM
Reply #1
  • Royal Member
  • ****
  • Thank You: 5
  • Reputation: 2
  • Activity:
    2.4%
  • Country: in
  • Posts: 914
  • Topics: 8
  • Join Date: Aug 2013
  • ShareSpark Member

Tags: thnxxxx 
 

Related Topics

  Subject / Started by Replies Last post
0 Replies
964 Views
Last post February 19, 2017, 04:15:53 PM
by PSYCHO
0 Replies
744 Views
Last post April 26, 2017, 02:15:56 AM
by PSYCHO
1 Replies
957 Views
Last post April 26, 2017, 09:51:42 PM
by Vagabond
0 Replies
558 Views
Last post April 27, 2017, 03:01:19 AM
by PSYCHO
0 Replies
894 Views
Last post April 28, 2017, 02:41:07 AM
by PSYCHO




Back to top
Sitemap