+ pyknicwear.com »  :::: Dubbed Zone (Dubbed English in Hindi) » English Movies Dubbed in Hindi » Animation Movies
|- Smurfs: The Lost Village (2017) 720p BluRay x264 [English DD 5.1 + Hindi DD 5.1] - Mafiaking - M2Tv


100% Bill Offer

Smurfs: The Lost Village (2017) 720p BluRay x264 [English DD 5.1 + Hindi DD 5.1] - Mafiaking - M2Tv

0 Members and 1 Guest are viewing this topic.

August 25, 2017, 06:40:57 PM
  • Addic7ed
  • Hot Member
  • ****
  • Topic Author
  • Thank You: 260
  • Reputation: 32
  • Activity:
    21.2%
  • Country: in
  • Posts: 570
  • Topics: 572
  • Join Date: Dec 2016
  • ShareSpark Member





-:: Information ::-

General
Complete name : Smurfs: The Lost Village (2017) 720p BluRay x264 [English DD 5.1 + Hindi DD 5.1] - Mafiaking - M2Tv.mkv
Format : Matroska
Format version : Version 4 / Version 2
File size : 899 MiB
Duration : 1 h 29 min
Overall bit rate : 1 400 kb/s
Movie name : Smurfs: The Lost Village (2017) 720p BluRay x264 [English DD 5.1 + Hindi DD 5.1] - Mafiaking - M2Tv

Video
ID : 1
Format : AVC
Format/Info : Advanced Video Codec
Format profile :[email protected]
Format settings, CABAC : Yes
Format settings, RefFrames : 4 frames
Codec ID : V_MPEG4/ISO/AVC
Duration : 1 h 29 min
Bit rate : 950 kb/s
Width : 1 280 pixels
Height : 688 pixels
Display aspect ratio : 1.85:1
Frame rate mode : Constant
Frame rate : 23.976 (24000/1001) FPS
Color space : YUV
Chroma subsampling : 4:2:0
Bit depth : 8 bits
Scan type : Progressive
Bits/(Pixel*Frame) : 0.045
Stream size : 610 MiB (68%)
Title : Mafiaking
Language : English
Default : Yes
Forced : No

Audio #1
ID : 2
Format : AC-3
Format/Info : Audio Coding 3
Format settings, Endianness : Big
Codec ID : A_AC3
Duration : 1 h 29 min
Bit rate mode : Constant
Bit rate : 224 kb/s
Channel(s) : 6 channels
Sampling rate : 48.0 kHz
Bit depth : 16 bits
Compression mode : Lossy
Stream size : 144 MiB (16%)
Title : Mafiaking
Language : Hindi
Default : Yes
Forced : No

Audio #2
ID : 3
Format : AC-3
Format/Info : Audio Coding 3
Format settings, Endianness : Big
Codec ID : A_AC3
Duration : 1 h 29 min
Bit rate mode : Constant
Bit rate : 224 kb/s
Channel(s) : 6 channels
Sampling rate : 48.0 kHz
Bit depth : 16 bits
Compression mode : Lossy
Stream size : 144 MiB (16%)
Title : Mafiaking
Language : English
Default : No
Forced : No

-:: ScreenShots ::-







-:: DOWNLOAD ::-






Share this topic on FacebookShare this topic on GoogleShare this topic on MySpaceShare this topic on TwitterShare this topic on Yahoo



Thanks given by:


August 25, 2017, 08:37:15 PM
Reply #1
  • Elite Forces
  • ****
  • Thank You: 231
  • Reputation: 99
  • Activity:
    8.4%
  • Country: sa
  • Posts: 1151
  • Topics: 116
  • Join Date: Jan 2017
  • ShareSpark Member

August 26, 2017, 10:35:48 AM
Reply #2
  • Hot Member
  • ***
  • Thank You: 25
  • Reputation: 8
  • Activity:
    6.4%
  • Country: bd
  • Posts: 601
  • Topics: 12
  • Join Date: Jun 2017
  • ShareSpark Member

August 26, 2017, 03:58:12 PM
Reply #3
  • Royal Member
  • ****
  • Thank You: 5
  • Reputation: 2
  • Activity:
    2.4%
  • Country: in
  • Posts: 914
  • Topics: 8
  • Join Date: Aug 2013
  • ShareSpark Member

Tags: thnxxxx 
 

Related Topics





Back to top
Sitemap