+ pyknicwear.com »  :::: Bollywood Zone » Regional Movies » Marathi Movies
|- Tula Kalnnaar Nahi 2017 MARATHI 1CD WebRip x264 AAC [TMB] 703MB


Amazon Pantry Offer

Tula Kalnnaar Nahi 2017 MARATHI 1CD WebRip x264 AAC [TMB] 703MB

0 Members and 1 Guest are viewing this topic.

November 02, 2017, 03:32:12 PM
  • Elite Moderator
  • Legend Member
  • ****
  • Topic Author
  • Thank You: 2000
  • Reputation: 286
  • Activity:
    1.2%
  • Country: in
  • Posts: 3722
  • Topics: 2854
  • Join Date: Sep 2016
  • (: EnJOy D LiFe :)
Tula Kalnnaar Nahi 2017 1CD WebRip x264 AAC TMB



 :info:

Video
Format : AVC
Format/Info : Advanced Video Codec
Format profile : [email protected]
Format settings : CABAC / 4 Ref Frames
Format settings, CABAC : Yes
Format settings, RefFrames : 4 frames
Codec ID : avc1
Codec ID/Info : Advanced Video Coding
Duration : 2 h 0 min
Bit rate : 616 kb/s
Width : 720 pixels
Height : 306 pixels
Display aspect ratio : 2.35:1
Frame rate mode : Variable
Frame rate : 23.976 (23976/1000) FPS
Minimum frame rate : 11.987 FPS
Maximum frame rate : 23.981 FPS
Color space : YUV
Chroma subsampling : 4:2:0
Bit depth : 8 bits
Scan type : Progressive
Bits/(Pixel*Frame) : 0.117
Stream size : 533 MiB (76%)
Writing library : x264 core 148 r2708 86b7198

Audio
Format : AC-3
Format/Info : Audio Coding 3
Format settings, Endianness : Big
Codec ID : ac-3
Duration : 2 h 0 min
Bit rate mode : Constant
Bit rate : 192 kb/s
Channel(s) : 2 channels
Channel positions : Front: L R
Sampling rate : 48.0 kHz
Frame rate : 31.250 FPS (1536 SPF)
Bit depth : 16 bits
Compression mode : Lossy
Stream size : 166 MiB (24%)


 :ss:












 :download:


Note : Audio Out of Sync











Note : Audio Out of Sync





Share this topic on FacebookShare this topic on GoogleShare this topic on MySpaceShare this topic on TwitterShare this topic on Yahoo

« Last Edit: November 02, 2017, 06:53:12 PM by PSYCHO »


* BUSY *

Thanks given by:


Tags:
 

Related Topics

  Subject / Started by Replies Last post
0 Replies
703 Views
Last post October 08, 2015, 08:57:51 AM
by ♥♫ ŘÃŇĎỖϻ ŘĮĎỖЎ ♥♫
0 Replies
726 Views
Last post April 23, 2017, 11:55:24 PM
by PSYCHO
2 Replies
1233 Views
Last post October 21, 2017, 09:23:15 PM
by proyer
2 Replies
1124 Views
Last post November 03, 2017, 12:38:31 AM
by Rάήνίјάч1234
1 Replies
1053 Views
Last post November 03, 2017, 12:37:57 AM
by TeamTMB




Back to top
Sitemap