+ pyknicwear.com »  :::: Bollywood Zone » Regional Movies » Marathi Movies
|- [MARATHI] Muramba 2017 720p NFRip x264 AAC ESubs [TMB]


One Plus 6
  • [MARATHI] Muramba 2017 720p NFRip x264 AAC ESubs [TMB] 5 1
Currently:  

[MARATHI] Muramba 2017 720p NFRip x264 AAC ESubs [TMB]

0 Members and 1 Guest are viewing this topic.

December 17, 2017, 02:30:12 PM
  • Semi Newbie
  • **
  • Topic Author
  • Thank You: 7
  • Reputation: 2
  • Activity:
    0.6%
  • Country: in
  • Posts: 15
  • Topics: 10
  • Join Date: Mar 2017
  • ShareSpark Member
Muramba 2017 720p NFRip x264 AAC ESubs [TMB]


 :info:
General
Complete name : Muramba 2017 720p NFRip x264 AAC ESubs [TMB].mp4
Format : MPEG-4
Format profile : Base Media / Version 2
Codec ID : mp42 (isom/iso2/avc1/mp41)
File size : 1.47 GiB
Duration : 2 h 7 min
Overall bit rate mode : Variable
Overall bit rate : 1 649 kb/s

Video
Format : AVC
Format/Info : Advanced Video Codec
Format profile : [email protected]
Format settings : CABAC / 4 Ref Frames
Format settings, CABAC : Yes
Format settings, ReFrames : 4 frames
Codec ID : avc1
Codec ID/Info : Advanced Video Coding
Duration : 2 h 7 min
Bit rate : 1 482 kb/s
Width : 1 280 pixels
Height : 540 pixels
Display aspect ratio : 2.40:1
Frame rate mode : Constant
Frame rate : 24.000 FPS
Color space : YUV
Chroma subsampling : 4:2:0
Bit depth : 8 bits
Scan type : Progressive
Bits/(Pixel*Frame) : 0.089
Stream size : 1.32 GiB (90%)
Writing library : x264 core 148 r2708 86b7198

Audio
Format : AAC
Format/Info : Advanced Audio Codec
Format profile : LC
Codec ID : mp4a-40-2
Duration : 2 h 7 min
Bit rate mode : Variable
Bit rate : 160 kb/s
Channel(s) : 2 channels
Channel positions : Front: L R
Sampling rate : 48.0 kHz
Frame rate : 46.875 FPS (1024 SPF)
Compression mode : Lossy
Stream size : 146 MiB (10%)

Text
Format : Timed Text
Muxing mode : sbtl
Codec ID : tx3g
Duration : 2 h 3 min
Bit rate mode : Variable
Bit rate : 80 b/s
Stream size : 72.7 KiB (0%)

Audio : Marathi

 :ss:








 :download:




Share this topic on FacebookShare this topic on GoogleShare this topic on MySpaceShare this topic on TwitterShare this topic on Yahoo

« Last Edit: December 17, 2017, 02:31:49 PM by hrishi.24 »


Thanks given by:


December 17, 2017, 03:08:02 PM
Reply #1
  • Devoted Member
  • **
  • Thank You: 66
  • Reputation: 13
  • Activity:
    0.6%
  • Country: in
  • Posts: 120
  • Topics: 28
  • Join Date: Jun 2012
  • ShareSpark Member

December 17, 2017, 03:49:27 PM
Reply #2
  • Newbie
  • **
  • Thank You: 0
  • Reputation: 0
  • Activity:
    0%
  • Country: in
  • Posts: 3
  • Topics: 0
  • Join Date: Nov 2017
  • ShareSpark Member
nice to see mine print here by some other member... what happened to ranvijay1234 ;)

Share other prints too, i shared total 4 prints of Muramba ;)

Tags:
 

Related Topics

  Subject / Started by Replies Last post
0 Replies
1012 Views
Last post December 17, 2017, 03:58:48 PM
by PSYCHO
0 Replies
856 Views
Last post December 17, 2017, 04:26:03 PM
by PSYCHO
0 Replies
1075 Views
Last post December 17, 2017, 04:56:02 PM
by PSYCHO
0 Replies
862 Views
Last post January 05, 2018, 11:48:31 AM
by PSYCHO
0 Replies
863 Views
Last post January 05, 2018, 11:57:35 AM
by PSYCHO




Back to top
Sitemap