+ pyknicwear.com »  :::: Bollywood Zone » Regional Movies » Marathi Movies
|- 15+ Sunrise 2014 MARATHI NFDC 1080p NFHDRip x264 AAC ESubs [TMB] 2.98GB GD Link...


HDFC 10% Off

15+ Sunrise 2014 MARATHI NFDC 1080p NFHDRip x264 AAC ESubs [TMB] 2.98GB GD Link...

0 Members and 1 Guest are viewing this topic.

January 05, 2018, 01:34:17 PM
  • Elite Moderator
  • Legend Member
  • ****
  • Topic Author
  • Thank You: 2000
  • Reputation: 286
  • Activity:
    1.2%
  • Country: in
  • Posts: 3722
  • Topics: 2854
  • Join Date: Sep 2016
  • (: EnJOy D LiFe :)



15+ Sunrise 2014 MARATHI NFDC 1080p NFHDRip x264 AAC ESubs TMB











 :info:

General
Complete name               : 15+ Sunrise 2014 NFDC 1080p NFHDRip x264 AAC ESubs [TMB].mp4
Format                      : MPEG-4
Format profile              : Base Media / Version 2
Codec ID                    : mp42 (isom/iso2/avc1/mp41)
File size                   : 2.98 GiB
Duration                    : 1 h 24 min
Overall bit rate mode       : Variable
Overall bit rate            : 5 022 kb/s

Video
Format                      : AVC
Format/Info                 : Advanced Video Codec
Format profile              : [email protected]
Format settings             : CABAC / 4 Ref Frames
Format settings, CABAC      : Yes
Format settings, ReFrames   : 4 frames
Codec ID                    : avc1
Codec ID/Info               : Advanced Video Coding
Duration                    : 1 h 24 min
Bit rate                    : 4 933 kb/s
Width                       : 1 920 pixels
Height                      : 1 036 pixels
Display aspect ratio        : 1.85:1
Frame rate mode             : Constant
Frame rate                  : 24.000 FPS
Color space                 : YUV
Chroma subsampling          : 4:2:0
Bit depth                   : 8 bits
Scan type                   : Progressive
Bits/(Pixel*Frame)          : 0.103
Stream size                 : 2.92 GiB (98%)
Writing library             : x264 core 148 r2708 86b7198

Audio
Format                      : AAC
Format/Info                 : Advanced Audio Codec
Format profile              : HE-AAC / LC
Format settings             : Implicit
Codec ID                    : mp4a-40-2
Duration                    : 1 h 24 min
Bit rate mode               : Variable
Bit rate                    : 96.0 kb/s
Channel(s)                  : 2 channels
Channel positions           : Front: L R
Sampling rate               : 48.0 kHz / 24.0 kHz
Frame rate                  : 23.438 FPS (1024 SPF)
Compression mode            : Lossy
Stream size                 : 57.6 MiB (2%)

Text
Format                      : Timed Text
Muxing mode                 : sbtl
Codec ID                    : tx3g
Duration                    : 1 h 24 min
Bit rate mode               : Variable
Bit rate                    : 11 b/s
Stream size                 : 6.58 KiB (0%)

by TeamTMB


 :ss:








 :download:










GD Link (.zip) :






Share this topic on FacebookShare this topic on GoogleShare this topic on MySpaceShare this topic on TwitterShare this topic on Yahoo

« Last Edit: January 05, 2018, 03:13:26 PM by PSYCHO »


* BUSY *

Thanks given by:


Tags:
 

Related Topics

  Subject / Started by Replies Last post
0 Replies
1020 Views
Last post December 17, 2017, 03:58:48 PM
by PSYCHO
0 Replies
1081 Views
Last post December 17, 2017, 04:56:02 PM
by PSYCHO
0 Replies
868 Views
Last post January 05, 2018, 11:48:31 AM
by PSYCHO
0 Replies
873 Views
Last post January 05, 2018, 11:57:35 AM
by PSYCHO
1 Replies
1081 Views
Last post January 05, 2018, 07:20:23 PM
by yogesh.sagpariya.5




Back to top
Sitemap