+ pyknicwear.com »  :::: Bollywood Zone » Bollywood Movies (Pre Releases)
|- Hasee To Phasee (2014) Non Retail XVID 1CD{VikkyMaxx}-SilverRG - 700 MB


100% Bill Offer

Hasee To Phasee (2014) Non Retail XVID 1CD{VikkyMaxx}-SilverRG - 700 MB

0 Members and 1 Guest are viewing this topic.

February 09, 2014, 02:48:27 PM
  • Elite Mod (Inactive)
  • Legend Member
  • ****
  • Topic Author
  • Thank You: 574
  • Reputation: 291
  • Activity:
    0%
  • Country: in
  • Posts: 1665
  • Topics: 577
  • Join Date: Aug 2012
  • ShareSpark Member
  • Expertises:
  • Bollywood Movies
  • Internet Tips & Tricks
Hasee To Phasee (2014) Non Retail XVID 1CD{VikkyMaxx}-SilverRG - 700 MB




Info
Code: [Select]


Complete name: Hasee To Phasee (2014) Non Retail XVID 1CD{VikkyMaxx}-SilverRG
Format : AVI
Format/Info : Audio Video Interleave
File size : 694 MiB
Duration : 2h 20mn
Overall bit rate : 689 Kbps

Video:-
 
ID : 0
Format : MPEG-4 Visual
Format profile : Advanced [email protected]
Format settings, BVOP : 2
Format settings, QPel : No
Format settings, GMC : No warppoints
Format settings, Matrix : Default (H.263)
Codec ID : XVID
Codec ID/Hint : XviD
Duration : 2h 20mn
Bit rate : 602 Kbps
Width : 640 pixels
Height : 272 pixels
Display aspect ratio : 2.35:1
Frame rate : 29.970 fps
Color space : YUV
Chroma subsampling : 4:2:0
Bit depth : 8 bits
Scan type : Progressive
Compression mode : Lossy
Bits/(Pixel*Frame) : 0.115
Stream size : 606 MiB (87%)
Writing library : XviD 1.2.1 (UTC 2008-12-04)

Audio:-
 
ID : 1
Format : MPEG Audio
Format version : Version 1
Format profile : Layer 3
Mode : Joint stereo
Mode extension : MS Stereo
Codec ID : 55
Codec ID/Hint : MP3
Duration : 2h 20mn
Bit rate mode : Constant
Bit rate : 80.0 Kbps
Channel(s) : 2 channels
Sampling rate : 32.0 KHz
Compression mode : Lossy
Stream size : 80.6 MiB (12%)
Alignment : Aligned on interleaves
Interleave, duration : 133 ms (4.00 video frames)
Interleave, preload duration : 216 ms
Title : VTS_01_1 T80 2_0ch 192Kbps DELAY 0ms
Writing library : LAME3.99r
Encoding settings : -m j -V 4 -q 2 -lowpass 13.5 -b 80


ScreenShots







Sample
Code: [Select]
http://davvas.com/pbg7rqkbvoff


Download Links

Code: [Select]
http://epicshare.net/zte848qvt7k6/Hasee_To_Phasee_(2014)_Non_Retail_XVID_1CD{VikkyMaxx}-SilverRG.avi.html

http://megarelease.org/zte848qvt7k6

http://uncapped-downloads.com/zte848qvt7k6

http://lemuploads.com/zte848qvt7k6

http://uptobox.com/fow6m2kof02g

http://hugefiles.net/uulhns4pbfa8

http://davvas.com/jx2cwpm9kwwy

http://180upload.com/q067luuhv2fk

http://uploadsat.com/pbm2dagz2uz7/Hasee_To_Phasee_(2014)_Non_Retail_XVID_1CD{VikkyMaxx}-SilverRG.avi



I have Finished My Work. Now Its Your Turn To Say Thanks And Add Reputation.

Share this topic on FacebookShare this topic on GoogleShare this topic on MySpaceShare this topic on TwitterShare this topic on Yahoo



Tech Reviewer at : -

Thanks given by:


February 09, 2014, 02:58:04 PM
Reply #1
  • Semi Newbie
  • **
  • Thank You: 0
  • Reputation: 0
  • Activity:
    0%
  • Posts: 24
  • Topics: 0
  • Join Date: Jul 2012
  • ShareSpark Member

February 09, 2014, 03:01:14 PM
Reply #2
  • Elite Mod (Inactive)
  • Legend Member
  • ****
  • Topic Author
  • Thank You: 574
  • Reputation: 291
  • Activity:
    0%
  • Country: in
  • Posts: 1665
  • Topics: 577
  • Join Date: Aug 2012
  • ShareSpark Member
  • Expertises:
  • Bollywood Movies
  • Internet Tips & Tricks

February 09, 2014, 05:51:19 PM
Reply #3
  • *****************
  • Head Admin
  • Legend Member
  • *****
  • Thank You: 6651
  • Reputation: 2914
  • Activity:
    76%
  • Country: in
  • Posts: 18782
  • Topics: 10946
  • Join Date: Mar 2012
  • The Time Is Now......

February 09, 2014, 09:03:07 PM
Reply #4
  • Elite Mod (Inactive)
  • Legend Member
  • ****
  • Topic Author
  • Thank You: 574
  • Reputation: 291
  • Activity:
    0%
  • Country: in
  • Posts: 1665
  • Topics: 577
  • Join Date: Aug 2012
  • ShareSpark Member
  • Expertises:
  • Bollywood Movies
  • Internet Tips & Tricks

February 11, 2014, 08:38:30 AM
Reply #5
  • Senior Member
  • ***
  • Thank You: 0
  • Reputation: 0
  • Activity:
    0%
  • Posts: 259
  • Topics: 0
  • Join Date: Sep 2013
  • ShareSpark Member

 

Related Topics





Back to top
Sitemap