+ pyknicwear.com »  :::: Bollywood Zone » Bollywood Movies (Pre Releases)
|- Happy Ending (2014) - 1CDRip - DVDScr - x264 - AC3 - 2CH - TellyTNT BY ASN


HDFC 10% Off

Happy Ending (2014) - 1CDRip - DVDScr - x264 - AC3 - 2CH - TellyTNT BY ASN

0 Members and 1 Guest are viewing this topic.

November 21, 2014, 09:27:12 PM
  • Don't Fear The 'Boss' Is Here!
  • Conqueror (Inactive)
  • Elite Forces
  • *****
  • Topic Author
  • Thank You: 337
  • Reputation: 195
  • Activity:
    0%
  • Country: in
  • Posts: 1460
  • Topics: 254
  • Join Date: Mar 2012
  • *$* CEH | ISEH*$*
  • Expertises:
  • Bollywood Movies
  • Regional Movies
  • Dubbed Movies
Happy Ending (2014) - 1CDRip - DVDScr - x264 - AC3 - 2CH - TellyTNT BY ASN




Code: [Select]
Format                                   : Matroska
Format version                           : Version 4 / Version 2
File size                                : 705 MiB
Duration                                 : 2h 13mn
Overall bit rate                         : 741 Kbps


Video
ID                                       : 1
Format                                   : AVC
Format/Info                              : Advanced Video Codec
Format profile                           : [email protected]
Format settings, CABAC                   : Yes
Format settings, ReFrames                : 4 frames
Codec ID                                 : V_MPEG4/ISO/AVC
Duration                                 : 2h 13mn
Bit rate                                 : 611 Kbps
Width                                    : 640 pixels
Height                                   : 272 pixels
Display aspect ratio                     : 2.35:1
Frame rate mode                          : Constant
Frame rate                               : 25.000 fps
Color space                              : YUV
Chroma subsampling                       : 4:2:0
Bit depth                                : 8 bits
Scan type                                : Progressive
Bits/(Pixel*Frame)                       : 0.140
Stream size                              : 569 MiB (81%)


Audio
ID                                       : 2
Format                                   : MPEG Audio
Format version                           : Version 1
Format profile                           : Layer 2
Codec ID                                 : A_MPEG/L2
Codec ID/Hint                            : MP2
Duration                                 : 2h 13mn
Bit rate mode                            : Constant
Bit rate                                 : 128 Kbps
Channel(s)                               : 2 channels
Sampling rate                            : 48.0 KHz
Compression mode                         : Lossy
Stream size                              : 122 MiB (17%)
Default                                  : Yes
Forced                                   : No


















OR

OR

OR

OR



HIT THANKS & REP+, IF YOU LIKE MY POST

Share this topic on FacebookShare this topic on GoogleShare this topic on MySpaceShare this topic on TwitterShare this topic on Yahoo




 

Related Topics





Back to top
Sitemap