+ pyknicwear.com »  :::: Bollywood Zone » Bollywood Movies (Original Rips) » HEVC / H.265 Releases
|- JAB WE MET 2007 1080P BLURAY 10BIT X265 5.1 AAC HEVC NATTY


Samsung Galaxy 8

JAB WE MET 2007 1080P BLURAY 10BIT X265 5.1 AAC HEVC NATTY

0 Members and 1 Guest are viewing this topic.

January 29, 2018, 12:21:39 PM
  • Addic7ed
  • Royal Member
  • ****
  • Topic Author
  • Thank You: 512
  • Reputation: 185
  • Activity:
    0%
  • Country: np
  • Posts: 1076
  • Topics: 702
  • Join Date: May 2017
  • #Me



 :plot:
Jab We Met 2007 in 1080p, encoded with x265 (HEVC) and AAC 5.1 Hindi Audio with multiple subtitles!
Encoded using the time consuming Slow Preset with 2 pass, 10 bit color at 3500 kbps, from Untouched Bluray Source, for the highest quality possible.


Source: Untouched Bluray by Hon3yHD


Quote
General
Complete name : Jab We Met 2007 1080p Bluray 10bit x265 5.1 AAC HEVC Natty.mkv
Format : Matroska
Format version : Version 4 / Version 2
File size : 3.47 GiB
Duration : 2 h 23 min
Overall bit rate : 3 456 kb/s
Encoded date : UTC 2017-09-26 03:35:57
Writing application : mkvmerge v15.0.0 ('Duel with the Devil') 64-bit
Writing library : libebml v1.3.5 + libmatroska v1.4.5
Writing frontend : Natty

Video
ID : 1
Format : HEVC
Format/Info : High Efficiency Video Coding
Format profile : Main [email protected]@Main
Codec ID : V_MPEGH/ISO/HEVC
Duration : 2 h 23 min
Bit rate : 3 003 kb/s
Width : 1 920 pixels
Height : 802 pixels
Display aspect ratio : 2.40:1
Frame rate mode : Constant
Frame rate : 24.000 FPS
Color space : YUV
Chroma subsampling : 4:2:0
Bit depth : 10 bits
Bits/(Pixel*Frame) : 0.081
Stream size : 3.01 GiB (87%)
Writing library : x265 2.5+17-f8ae7afc1f61:[Windows][MSVC 1911][64 bit] 10bit
Default : Yes
Forced : No
Color range : Full
Color primaries : BT.709
Transfer characteristics : BT.709
Matrix coefficients : BT.709

Audio
ID : 2
Format : AAC
Format/Info : Advanced Audio Codec
Format profile : LC
Codec ID : A_AAC
Duration : 2 h 23 min
Bit rate : 434 kb/s
Channel(s) : 6 channels
Channel positions : Front: L C R, Side: L R, LFE
Sampling rate : 48.0 kHz
Frame rate : 46.875 FPS (1024 SPF)
Compression mode : Lossy
Delay relative to video : 20 ms
Stream size : 446 MiB (13%)
Language : Hindi
Default : No
Forced : No

Text
ID : 3
Format : PGS
Muxing mode : zlib
Codec ID : S_HDMV/PGS
Codec ID/Info : Picture based subtitle format used on BDs/HD-DVDs
Duration : 2 h 21 min
Bit rate : 43.5 kb/s
Count of elements : 3153
Stream size : 43.9 MiB (1%)
Language : English
Default : No
Forced : No

 :download: :download:
Quote


Share this topic on FacebookShare this topic on GoogleShare this topic on MySpaceShare this topic on TwitterShare this topic on Yahoo

« Last Edit: April 14, 2018, 07:50:11 AM by UnikAaYush »


Thanks given by:


January 29, 2018, 02:48:14 PM
Reply #1
  • Conqueror
  • Elite Forces
  • *****
  • Thank You: 493
  • Reputation: 184
  • Activity:
    40.8%
  • Country: in
  • Posts: 1124
  • Topics: 490
  • Join Date: Oct 2015
  • Hit ThanX Button 🔳 N Repute Button 🔳
Nice Share  Keep Up : :clap: Bachne Ne Grow Up Kar Liya Ab  :smoke:  Now U R Working Perfectly 👍
Hit Thnx Button 🔳 N + Repute Button 🔳 Always Appreciate UploadeR 🤗 GiVe Respect GeT Respect :yu:

January 29, 2018, 03:34:13 PM
Reply #2
  • Addic7ed
  • Royal Member
  • ****
  • Topic Author
  • Thank You: 512
  • Reputation: 185
  • Activity:
    0%
  • Country: np
  • Posts: 1076
  • Topics: 702
  • Join Date: May 2017
  • #Me
Nice Share  Keep Up : :clap: Bachne Ne Grow Up Kar Liya Ab  :smoke:  Now U R Working Perfectly 👍
Bachha Matt kehnah Uncle....:biggrin::thumbs::hukka: :thank: :thank:
« Last Edit: January 29, 2018, 03:34:59 PM by UnikAaYush »

January 29, 2018, 07:46:05 PM
Reply #3
  • Hero Member
  • ***
  • Thank You: 0
  • Reputation: 7
  • Activity:
    8.2%
  • Country: au
  • Posts: 387
  • Topics: 0
  • Join Date: Oct 2017
  • ShareSpark Member

April 04, 2018, 07:59:05 AM
Reply #4
  • Semi Newbie
  • **
  • Thank You: 0
  • Reputation: -2
  • Activity:
    0%
  • Country: in
  • Posts: 43
  • Topics: 0
  • Join Date: Dec 2017
  • ShareSpark Member

April 06, 2018, 02:30:05 AM
Reply #5
  • Semi Newbie
  • **
  • Thank You: 0
  • Reputation: -2
  • Activity:
    0%
  • Country: in
  • Posts: 43
  • Topics: 0
  • Join Date: Dec 2017
  • ShareSpark Member
uptobox link is not working due to vpn
please upload at google drive

April 12, 2018, 11:08:58 AM
Reply #6
  • Semi Newbie
  • **
  • Thank You: 0
  • Reputation: -2
  • Activity:
    0%
  • Country: in
  • Posts: 43
  • Topics: 0
  • Join Date: Dec 2017
  • ShareSpark Member

April 12, 2018, 08:56:09 PM
Reply #7
  • Addic7ed
  • Royal Member
  • ****
  • Topic Author
  • Thank You: 512
  • Reputation: 185
  • Activity:
    0%
  • Country: np
  • Posts: 1076
  • Topics: 702
  • Join Date: May 2017
  • #Me
Bro Please Upload At Google Drive :worthy: :worthy: :thank:

Invaid Google Drive
Uptobox is working fine...!!
Check...!!!

April 13, 2018, 08:19:08 AM
Reply #8
  • Semi Newbie
  • **
  • Thank You: 0
  • Reputation: -2
  • Activity:
    0%
  • Country: in
  • Posts: 43
  • Topics: 0
  • Join Date: Dec 2017
  • ShareSpark Member
Bro Do You Have Any Trouble With Google Drive
Upload It Na

April 14, 2018, 07:50:34 AM
Reply #9
  • Addic7ed
  • Royal Member
  • ****
  • Topic Author
  • Thank You: 512
  • Reputation: 185
  • Activity:
    0%
  • Country: np
  • Posts: 1076
  • Topics: 702
  • Join Date: May 2017
  • #Me
Bro Do You Have Any Trouble With Google Drive
Upload It Na
Done...Enjoy..!!!

April 14, 2018, 01:55:45 PM
Reply #10
  • Semi Newbie
  • **
  • Thank You: 0
  • Reputation: 0
  • Activity:
    0%
  • Country: in
  • Posts: 6
  • Topics: 0
  • Join Date: Apr 2018
  • ShareSpark Member

Tags: new 
 

Related Topics





Back to top
Sitemap