+ pyknicwear.com »  :::: Hollywood Zone » English PC Videos (High-Definition)
|- Avatar 2 (2020) - HD Teaser Trailer #1 [720p]


TV and Appliances

Avatar 2 (2020) - HD Teaser Trailer #1 [720p]

0 Members and 1 Guest are viewing this topic.

September 07, 2018, 07:29:42 PM
  • Team SSX
  • Special Member
  • ***
  • Topic Author
  • Thank You: 123
  • Reputation: 19
  • Activity:
    18.4%
  • Country: pk
  • Posts: 722
  • Topics: 494
  • Join Date: Nov 2012
  • Upgrade My Reputation







IMDB:
Code: [Select]
http://www.imdb.com/title/tt1630029/

Release Info:
Code: [Select]
Complete name                            : Avatar_2.2020.HD.Teaser.Trailer.#1.720p.By.Rj.Rabasha.mp4
Format                                   : MPEG-4
Format profile                           : Base Media / Version 2
Codec ID                                 : mp42 (isom/mp42)
File size                                : 15.6 MiB
Duration                                 : 2 min 4 s
Overall bit rate mode                    : Variable
Overall bit rate                         : 1 054 kb/s
Encoded date                             : UTC 2018-08-31 18:23:11
Tagged date                              : UTC 2018-08-31 18:23:11
gsst                                     : 0
gstd                                     : 124389

Video
ID                                       : 1
Format                                   : AVC
Format/Info                              : Advanced Video Codec
Format profile                           : [email protected]
Format settings                          : CABAC / 3 Ref Frames
Format settings, CABAC                   : Yes
Format settings, ReFrames                : 3 frames
Codec ID                                 : avc1
Codec ID/Info                            : Advanced Video Coding
Duration                                 : 2 min 4 s
Bit rate                                 : 924 kb/s
Width                                    : 1 280 pixels
Height                                   : 720 pixels
Display aspect ratio                     : 16:9
Frame rate mode                          : Variable
Frame rate                               : 23.976 (24000/1001) FPS
Minimum frame rate                       : 23.974 FPS
Maximum frame rate                       : 23.981 FPS
Color space                              : YUV
Chroma subsampling                       : 4:2:0
Bit depth                                : 8 bits
Scan type                                : Progressive
Bits/(Pixel*Frame)                       : 0.042
Stream size                              : 13.7 MiB (88%)
Encoded date                             : UTC 2018-08-31 18:23:11
Tagged date                              : UTC 2018-08-31 18:23:11
Color range                              : Limited
Color primaries                          : BT.709
Transfer characteristics                 : BT.709
Matrix coefficients                      : BT.709

Audio
ID                                       : 2
Format                                   : AAC
Format/Info                              : Advanced Audio Codec
Format profile                           : LC
Codec ID                                 : mp4a-40-2
Duration                                 : 2 min 4 s
Bit rate mode                            : Variable
Bit rate                                 : 126 kb/s
Channel(s)                               : 2 channels
Channel positions                        : Front: L R
Sampling rate                            : 44.1 kHz
Frame rate                               : 43.066 FPS (1024 SPF)
Compression mode                         : Lossy
Stream size                              : 1.86 MiB (12%)
Language                                 : English
Encoded date                             : UTC 2018-08-31 18:23:11
Tagged date                              : UTC 2018-08-31 18:23:11

















Code: [Select]
http://openload.co/f/3FWxgVyUH9w



Code: [Select]
http://bdupload.info/8j0s3x9sut2w



Code: [Select]
http://www.indishare.me/i84jq5hx1gmy



Code: [Select]
http://uptobox.com/mwcntu9mtogh




Code: [Select]
http://vidoza.net/ggmjfc2d4ngr.html







Share this topic on FacebookShare this topic on GoogleShare this topic on MySpaceShare this topic on TwitterShare this topic on Yahoo

« Last Edit: September 07, 2018, 07:30:17 PM by Rabasha »



Tags: avatar2 
 

Related Topics

  Subject / Started by Replies Last post
0 Replies
1056 Views
Last post January 27, 2012, 10:46:58 AM
by Blood Warrior
0 Replies
1071 Views
Last post March 18, 2012, 01:53:12 AM
by Nimish
1 Replies
738 Views
Last post November 11, 2015, 01:03:53 PM
by azhar0300♥♫
2 Replies
1541 Views
Last post June 18, 2017, 10:06:15 PM
by Vagabond
0 Replies
655 Views
Last post October 12, 2018, 10:10:34 PM
by Rabasha




Back to top
Sitemap